PDA

View Full Version : E6 BT project



captain23
10-21-2004, 08:57 PM
seed#3

download here (http://www.easytree.org/torrents-details.php?id=10764)



elf power
5-24-02
abbey pub chicago il
indy-pop fest

source:SBD/AUD matrix
aud:2 pzm>p1>d8
transfer:sv-3700>Coresound>Prodif Plus>soundforge4.5 >CDwav>MKW>SHN
taped,tracked,transfered:captain23 (captain23@comcast.net)

1let the serpent sleep
2everlasting scream
3the creature
4palace of the flames
5jane
6the skeleton
7the seperating fault
8its your face he sees
9visions of the sea
10three seeds
11things that should not be
12oh what a beautiful dream
13drugstore
14pay to cum(bad brains)
15five years(bowie)
16temporary arm
17the albatross
18i wanna be your dog(stooges)

[Edited on 10-22-2004 by captain23]

sloansimpson
01-04-2005, 10:08 PM
http://www.easytree.org/torrents-details.php?id=21164

Elf Power - 12/31/04
40 Watt Club - Athens, GA

01) Hole In My Shoe
02) Never Believe
03) Everlasting Scream
04) Walking With The Beggar Boys
05) The Secret Ocean
06) The Well
07) Visions Of The Sea
08) Jane
09) The Separating Fault
10) Skeleton
11) The Naughty Villain>
12) We Dream In Sound
13) Needles In The Camel's Eye

[Opened for Pylon]

www.elfpower.com

Andrew Reiger - guitar, vocals
Laura Carter - keyboard, guitar
Jimmy Hughes - guitar
Bryan Poole - bass, vocals
Aaron Wegelin - drums

with

John Fernandes - violin, clarinet, tambourine
Heather McIntosh - cello
Nic Canada - trumpet
Brent Jones - trombone
Raleigh Hatfield - vocals

Source: Neumann KM-184(DIN)> Lunatec V2> Graham-Patten ADC-20> Hosa ODL-276> Nomad Jukebox 3
Transfer: Nomad Jukebox 3> Firewire> Cool Edit Pro(DSP/SRC)> CDWave> FLAC Frontend

Recorded and transferred by Sloan Simpson

ep2004-12-31t01.flac:7de14a8048e204f2f81823420e7d0d26
ep2004-12-31t02.flac:35fa81a8d52c5afa0f7f12615aab7d70
ep2004-12-31t03.flac:bb35904a8d97497010b741326acc063d
ep2004-12-31t04.flac:6992e7a787b4c9236a63035103e63eee
ep2004-12-31t05.flac:06849795f088b127cfe844922c7b761a
ep2004-12-31t06.flac:2c653d568cefe523d2ed67ac48f17358
ep2004-12-31t07.flac:29256b165dfc49a30f0b8bccae7bca1a
ep2004-12-31t08.flac:e46d8fc89b5889f177a1a0c1fa3c0057
ep2004-12-31t09.flac:017d922aecf2249727ea607e9148c975
ep2004-12-31t10.flac:6421baa3c2ee8eb99252eefcd89b7fbc
ep2004-12-31t11.flac:0fb3d310eaea29e43069ee5b980e429a
ep2004-12-31t12.flac:b63362bb58bcf862f36f38557b4a1d52
ep2004-12-31t13.flac:4610b6bc978ab40ceb247867878ae877

length expanded size cdr WAVE problems filename
4:41.28 49634300 --- -- ---xx ep2004-12-31t01.flac
3:50.13 40602620 --- -- ---xx ep2004-12-31t02.flac
2:16.67 24148028 --- -- ---xx ep2004-12-31t03.flac
3:09.73 33511340 --- -- ---xx ep2004-12-31t04.flac
3:14.04 34231052 --- -- ---xx ep2004-12-31t05.flac
3:58.30 42053804 --- -- ---xx ep2004-12-31t06.flac
4:36.38 48775820 --- -- ---xx ep2004-12-31t07.flac
4:54.18 51903980 --- -- ---xx ep2004-12-31t08.flac
3:00.71 31919036 --- -- ---xx ep2004-12-31t09.flac
2:58.21 31448636 --- -- ---xx ep2004-12-31t10.flac
3:30.55 37173404 --- -- ---xx ep2004-12-31t11.flac
3:07.57 33120908 --- -- ---xx ep2004-12-31t12.flac
3:49.32 40470908 --- -- ---xx ep2004-12-31t13.flac
47:08.57 498993836 B (totals for 13 files, 0.6069 o
verall compression ratio)